您的位置:首页 >> 音乐>> 演唱会>> 陈紫函-千年等一回[Live][1080p][KTV][MKV][86MB][一轨原唱二轨伴奏]
陈紫函-千年等一回[Live][1080p][KTV][MKV][86MB][一轨原唱二轨伴奏]
添加日期 2016/10/13 10:57:44
大 小 86.24 MB
最后更新 2016/10/13 11:07:48
标 签 陈紫函 千年等一回 1080 KTV 无铭风
eD2k链接
下面是用户共享的文件列表,可以使用迅雷、QQ旋风等软件进行下载,点击文件名进行下载
陈紫函-千年等一回(Live).mkv 86.24 MB
86.24 MB

General
Complete name : 陈紫函-千年等一回(Live).mkv
Format : Matroska
Format version : Version 1
File size : 86.2 MiB
Duration : 1mn 53s
Overall bit rate : 6 360 Kbps
Encoded date : UTC 2014-07-23 16:49:36

Video
ID : 1
Format : AVC
Format/Info : Advanced Video Codec
Format profile : High@L5.1
Format settings, CABAC : Yes
Format settings, ReFrames : 8 frames
Codec ID : V_MPEG4/ISO/AVC
Duration : 1mn 53s
Bit rate : 6 000 Kbps
Width : 1 920 pixels
Height : 1 080 pixels
Display aspect ratio : 16:9
Frame rate mode : Constant
Frame rate : 23.976 fps
Color space : YUV
Chroma subsampling : 4:2:0
Bit depth : 8 bits
Scan type : Progressive
Bits/(Pixel*Frame) : 0.121
Stream size : 80.2 MiB (93%)
Writing library : x264 core 60 r886 1075536
Encoding settings : ...
Default : Yes
Forced : No

Audio #1
ID : 2
Format : MPEG Audio
Format version : Version 1
Format profile : Layer 3
Mode : Joint stereo
Codec ID : A_MPEG/L3
Codec ID/Hint : MP3
Duration : 1mn 53s
Bit rate mode : Constant
Bit rate : 160 Kbps
Channel(s) : 2 channels
Sampling rate : 44.1 KHz
Compression mode : Lossy
Stream size : 2.17 MiB (3%)
Title : 原唱
Default : Yes
Forced : No

Audio #2
ID : 3
Format : MPEG Audio
Format version : Version 1
Format profile : Layer 3
Mode : Joint stereo
Codec ID : A_MPEG/L3
Codec ID/Hint : MP3
Duration : 1mn 53s
Bit rate mode : Constant
Bit rate : 160 Kbps
Channel(s) : 2 channels
Sampling rate : 44.1 KHz
Compression mode : Lossy
Stream size : 2.17 MiB (3%)
Title : 伴奏
Default : No
Forced : No

相关资源推荐:
1,大张伟-倍儿爽[Live][KTV][1080p][MKV][147MB][一轨原唱二轨伴奏]
2,张津涤-一百个放心[1080p][原版KTV][MPG][688MB][一轨原唱二轨伴奏]
3,朴树-平凡之路[1080p][原版KTV][MPG][538MB][一轨原唱二轨伴奏]
4,冷漠-乌毡帽情缘[1080p][原版KTV][MPG][757MB][一轨原唱二轨伴奏]
5,2016年07月乌兰托娅《高原上的一朵云 HQCDⅡ》DTS[WAV分轨]
6,2016年5月乐升唱片 一人一首成名曲 发烧人声[WAV分轨]
7,【六一】[冰雪情缘 Frozen]主题歌 Let It Go (原版+伴奏+合唱+41语言版+混音版)[320K]
8,Kreisler -《贝多芬小提琴奏鸣曲二首》(Beethoven Violin Sonata No.7, 10)原版唱片抓轨[APE]
9,龙音唱片 -《二胡等弓弦乐类-上海之春(1963年第一届全国二胡比赛作品选)》(Favourite Recordings of the First National Erhu Competitiong in 1963)[龙音香港版 RB011001-3C]数码处理历史性录音[3C

上一篇: 机械危情_生化战士[简繁]The.Machine.2013.1080p.BluRay.DTS.x264-HDS 8.3GB
下一篇: 猎杀本·拉登_刺杀本·拉登[简繁]Zero.Dark.Thirty.2012.720p.BluRay.DTS.x264-HDS 6.18GB