您的位置:首页 >> 音乐>> 演唱会>> 大张伟-倍儿爽[Live][KTV][1080p][MKV][147MB][一轨原唱二轨伴奏]
大张伟-倍儿爽[Live][KTV][1080p][MKV][147MB][一轨原唱二轨伴奏]
添加日期 2016/10/13 11:04:29
大 小 147.14 MB
最后更新 2016/10/13 11:07:09
标 签 大张伟 倍儿爽 KTV 1080 无铭风
eD2k链接
下面是用户共享的文件列表,可以使用迅雷、QQ旋风等软件进行下载,点击文件名进行下载
大张伟-倍儿爽(Live).mkv 147.14 MB
147.14 MB

General
Complete name : 大张伟-倍儿爽(Live).mkv
Format : Matroska
Format version : Version 1
File size : 147 MiB
Duration : 2mn 53s
Overall bit rate : 7 127 Kbps
Encoded date : UTC 2014-07-27 14:01:56

Video
ID : 1
Format : AVC
Format/Info : Advanced Video Codec
Format profile : High@L5.1
Format settings, CABAC : Yes
Format settings, ReFrames : 8 frames
Codec ID : V_MPEG4/ISO/AVC
Duration : 2mn 53s
Bit rate : 6 500 Kbps
Width : 1 920 pixels
Height : 1 080 pixels
Display aspect ratio : 16:9
Frame rate mode : Constant
Frame rate : 25.000 fps
Color space : YUV
Chroma subsampling : 4:2:0
Bit depth : 8 bits
Scan type : Progressive
Bits/(Pixel*Frame) : 0.125
Stream size : 132 MiB (89%)
Writing library : x264 core 60 r886 1075536
Encoding settings : ...
Default : Yes
Forced : No

Audio #1
ID : 2
Format : AC-3
Format/Info : Audio Coding 3
Mode extension : CM (complete main)
Format settings, Endianness : Big
Codec ID : A_AC3
Duration : 2mn 53s
Bit rate mode : Constant
Bit rate : 448 Kbps
Channel(s) : 6 channels
Channel positions : Front: L C R, Side: L R, LFE
Sampling rate : 48.0 KHz
Compression mode : Lossy
Stream size : 9.25 MiB (6%)
Title : 原唱
Default : Yes
Forced : No

Audio #2
ID : 3
Format : MPEG Audio
Format version : Version 1
Format profile : Layer 3
Mode : Joint stereo
Codec ID : A_MPEG/L3
Codec ID/Hint : MP3
Duration : 2mn 53s
Bit rate mode : Constant
Bit rate : 160 Kbps
Channel(s) : 2 channels
Sampling rate : 44.1 KHz
Compression mode : Lossy
Stream size : 3.30 MiB (2%)
Title : 伴奏
Default : No
Forced : No

相关资源推荐:
1,张津涤-一百个放心[1080p][原版KTV][MPG][688MB][一轨原唱二轨伴奏]
2,陈紫函-千年等一回[Live][1080p][KTV][MKV][86MB][一轨原唱二轨伴奏]
3,朴树-平凡之路[1080p][原版KTV][MPG][538MB][一轨原唱二轨伴奏]
4,冷漠-乌毡帽情缘[1080p][原版KTV][MPG][757MB][一轨原唱二轨伴奏]
5,Kreisler -《贝多芬小提琴奏鸣曲二首》(Beethoven Violin Sonata No.7, 10)原版唱片抓轨[APE]
6,中国广播合唱团 -《大地颂赞》(The Broadcast Chorus of China)[ABC唱片 K2-025]中国第一张无伴奏合唱专辑[FLAC]
7,南征北战-2016首张数字音乐原创大碟《伪流行》[FLAC分轨]
8,中国首张吟唱专辑《一尘不染 HQCDⅡ》2016[WAV分轨]
9,【六一】[冰雪情缘 Frozen]主题歌 Let It Go (原版+伴奏+合唱+41语言版+混音版)[320K]

上一篇: 猎杀本·拉登_刺杀本·拉登[简繁]Zero.Dark.Thirty.2012.720p.BluRay.DTS.x264-HDS 6.18GB
下一篇: 禁运品_黑金速递[国英简繁]Contraband.2012.720p.BluRay.DTS.2Audio.x264-HDS 6.4GB