您的位置:首页 >> 电影>> 科幻>> 死亡飞车2050 Death.Race.2050.2017.720p.BluRay.x264.DTS-MT 5.5GB
死亡飞车2050 Death.Race.2050.2017.720p.BluRay.x264.DTS-MT 5.5GB
添加日期 2017/1/8 21:03:32
大 小
最后更新 2017/1/8 21:03:32
标 签 科幻 电影
磁力链接(Magnet URI)
下面是用户共享的磁力链接,可以使用迅雷、QQ旋风等软件进行下载,点击进行下载
该内容尚未提供权利证明,无法提供下载。


◎译  名 死亡飞车2050

◎片  名 Death Race 2050

◎年  代 2016

◎国  家 美国

◎类  别 喜剧/动作/科幻

◎语  言 英语

◎上映日期 January 17, 2017

◎IMDb评分 N/A

◎导  演 G.J. Echternkamp

◎主  演 马努·贝内特 Manu Bennett

      马尔科姆·麦克道威尔 Malcolm McDowell

      Marci Miller

◎简  介

  The year 2050 the planet has become overpopulated| to help control population the government develops a race. The Death Race. Annually competitors race across thecountry scoring points for killing people with their vehicles.

Video
ID : 1
Format : AVC
Format/Info : Advanced Video Codec
Format profile : High@L4.1
Format settings, CABAC : Yes
Format settings, ReFrames : 9 frames
Codec ID : V_MPEG4/ISO/AVC
Duration : 1h 32mn
Bit rate : 6 995 Kbps
Width : 1 280 pixels
Height : 720 pixels
Display aspect ratio : 16:9
Frame rate mode : Constant
Frame rate : 23.976 (24000/1001) fps
Color space : YUV
Chroma subsampling : 4:2:0
Bit depth : 8 bits
Scan type : Progressive
Bits/(Pixel*Frame) : 0.317
Stream size : 4.53 GiB (82%)
Default : Yes
Forced : No

Audio
ID : 2
Format : DTS
Format/Info : Digital Theater Systems
Mode : 16
Format settings, Endianness : Big
Codec ID : A_DTS
Duration : 1h 32mn
Bit rate mode : Constant
Bit rate : 1 509 Kbps
Channel(s) : 6 channels
Channel positions : Front: L C R, Side: L R, LFE
Sampling rate : 48.0 KHz
Frame rate : 93.750 fps (512 spf)
Bit depth : 24 bits
Compression mode : Lossy
Stream size : 1 001 MiB (18%)
Default : Yes
Forced : No



免费电影下载 限制级电影下载
最新电影下载

相关资源推荐:
1,[2012][欧美][动作][死亡飞车3:地狱烈焰][BD-MP4/1.3G][中文内嵌][720P高清][另类飙车]
2,《死亡飞车》Death Race.2008.中文内嵌.BDrip.720P
3,Death.Race.2.2010.死亡飞车2.双语字幕.HR-HDTV.AC3.1024X576.x264-人人影视制作
4,死亡飞车 Death Race (2008)
5,死亡飞车 Death Race (2008)
6,死亡飞车 Death Race (2008)
7,[2011][南非][死亡飞车2 Death Race 2][720P/BT高清电影下载]
8,死亡飞车
9,死亡飞车(怒火攻心主演)动作惊险

上一篇: [特洛伊 导演剪辑版][Bluray.720p-MKV/5.8G][英语/中英字幕]
下一篇: [勇士之门][HD-MP4/2.1G/2.46G][英语中字][720P/1080P][无水印]